07 September 2009

Time to Relax

Letih dan bosan dengan dunia.
Semuanya dilihat menjengkelkan.
Masih layakkah daku hidup di dunia ini?

Setelah berhempas pulas mencapab dengan tidak malunya di dunia maya, akhirnya berjaya juga blog ini merampas tempat pertama di topblogs iLI. Tahniah diucapkan.

Klik lah iklan sebagai tanda tahniah anda. Kepada semua bloggers di luar sana, anda tidak perlu menjadi hipokrit di alam maya, berubah menjadi Ustaz Hasrizal atau Ustaz Azhar Idrus untuk menjadi popular. Cukuplah dengan anda menjadi diri anda untuk menjadi seorang blogger berjaya. Haha~



Tangan saya telah mula sakit. Mungkin perlu menjauhkan diri dari komputer buat seketika. =)

Dan ini hadiah buat diri sendiri dan rakan-rakan yang mungkin telah letih dan bosan dengan hidup. Atau stress dengan kehidupan.

EDIT: Fixed some errors, edited some words and changed main color.

__^*Relax! - No Sleeves (AKB48)*^__



Download:
MP3 | Music Video Music Video v2



Song Info:
Artist: No Sleeves/no3b (Kojima Haruna, Takahashi Minami, Minegishi Minami)
Album: Relax!
Lyric: Click Here

File Info:
General
Complete name : Relax.No.Sleeves.XviD35-HafizAdam.avi
Format : AVI
Format/Info : Audio Video Interleave
File size : 36.5 MiB
Duration : 4mn 12s
Overall bit rate : 1 212 Kbps
Director : Muhammad Hafiz Adam
Encoded by : Muhammad Hafiz Adam
Writing application : VirtualDubMod 1.5.10.2 (build 2540/release)
Writing library : VirtualDubMod build 2540/release
Copyright : Creative Designer
Comment : http://akudarahanakmalaysia.blogspot.com

Video
Format : MPEG-4 Visual
Format profile : Streaming Video@L1
Format settings, BVOP : Yes
Format settings, QPel : No
Format settings, GMC : No warppoints
Format settings, Matrix : Default (MPEG)
Codec ID/Hint : XviD
Duration : 4mn 12s
Bit rate : 1 072 Kbps
Width : 640 pixels
Height : 480 pixels
Display aspect ratio : 4/3
Frame rate : 29.970 fps
Resolution : 24 bits
Colorimetry : 4:2:0
Scan type : Progressive
Bits/(Pixel*Frame) : 0.116
Stream size : 32.3 MiB (88%)
Writing library : XviD 1.2.1 (UTC 2008-12-04)

Audio
Format : MPEG Audio
Format version : Version 1
Format profile : Layer 3
Codec ID/Hint : MP3
Duration : 4mn 12s
Bit rate mode : Constant
Bit rate : 128 Kbps
Channel(s) : 2 channels
Sampling rate : 44.1 KHz
Resolution : 16 bits
Stream size : 3.85 MiB (11%)
Alignment : Split accross interleaves
Interleave, duration : 34 ms (1.01 video frame)
Interleave, preload duration : 500 ms



Note: For those who wants to download my last project (I'm Alone - Tiffany SNSD), I've added download link in my last post. Check it up. =)

7 penghinaan diterima:

oranglidi on September 7, 2009 at 6:44 AM said...

wah!! hebat2..

betul.. xperlu jadi hipokrit.. jadilah diri sndiri.

ikhwana syuhada on September 7, 2009 at 8:58 AM said...

taniah

c's on September 8, 2009 at 7:36 AM said...

come on~

u shud get urself off from those korean, japanase girls.. adoi ai~

HafizAdam on September 8, 2009 at 10:04 AM said...

kaitan?
aih~

adakah kamu jeles?
"saya dah ade, watpe nk tengok those japanese/korean girls tu lagi? isk3"

camtu?

Anonymous said...

artikel ini sangat sesuai untuk menegur penulis blog ini..

http://www.iluvislam.com/v1/readarticle.php?article_id=1386

HafizAdam on September 8, 2009 at 11:55 AM said...

Anon:
Hish gune Anon plak. Anti betul kalu Anon2 nih.

Bile mase pulak nih mende forward. Aih~
Kamu minat, tengok laa. Tak minat takyah tengok.
Video tuh tak gerak kalau kamu tak klik.

Lagipun orang Malaysia tak minat mende2 AKB48 nih. Orang luar negara je minat.

C's kat atas tuh jeles sebenarnye. Jangan layan sangat. Pompuan memang camtuh. Pantang kalo lelaki tengok pompuan lain.
Haha~

Anonymous said...

nurkasih ep18 ader ak??tlg downloadkn...oqe sinapore da tgok da...huhu..pnat tggu..x laqat nk tggu agy smggu..too long..please!!!

 

License

This blog by Muhammad Hafiz Adam is official website of Creative Designer and licensed under a Creative Commons Attribution-Noncommercial 2.5 Malaysia License.

You're free to Share (copying, distributing and transmitting) and to Remix (adapting the work) under the following conditions:
a) Attribution;
You must attribute the work by linking back to this blog pr anything similar (but not in any way that suggests that I endorse you or your use of the work).
b) Noncommercial;
You may not use this work for commercial purposes.

Categories

~AkuDarahAnakMalaysia~ Copyright © 2009 Community is Designed by Bie Blogger Template