28 May 2009

Tazkirah Ar-Razi EP02

Semalam sekali lagi Ustat Razi menjejakkan kaki di Mesir. Beliau akan berada di sini hingga 18 Jun, insyaAllah. Kesempatan yang ada, seperti biasa Alumni MEG3 telah diadakan di rumah Paeid.

Kalau sesi lepas membicarakan Kitaran Iman dan Ibadah, kali ini Ustat Razi membawa tajuk Tujuan Menuntut Ilmu, iaitu Makrifatullah. Perkongsian kali ini sangat lama, lebih sejam. Sedikit memeningkan tapi perkongsian untuk membersihkan hati saya rasa amat berbaloi untuk dikongsi.

Saya ingin upload ke YouTube tapi mungkin internet tidak mengizinkan. Update akan diberitahu melalui Twitter. Sementara itu, sesiapa yang ingin cuba download melalui torrent, silakan. Walaupun saya tak tahu anda boleh complete dalam masa sebulan atau tidak. Hehe, lebih baik anda datang ke rumah untuk ambik.



Download:
Torrent

YouTube:
Full Playlist




File Info:
General
Format : AVI
Format/Info : Audio Video Interleave
File size : 286 MiB
Duration : 1h 4mn
Overall bit rate : 622 Kbps
Director : Muhammad Hafiz Adam
Encoded by : Muhammad Hafiz Adam
Writing application : VirtualDubMod 1.5.10.2 (build 2540/release)
Writing library : VirtualDubMod build 2540/release
Copyright : Creative Designer
Comment : http://akudarahanakmalaysia.blogspot.com

Video
Format : MPEG-4 Visual
Format profile : Streaming Video@L1
Format settings, BVOP : Yes
Format settings, QPel : No
Format settings, GMC : No warppoints
Format settings, Matrix : Default
Codec ID : XVID
Codec ID/Hint : XviD
Duration : 1h 4mn
Bit rate : 485 Kbps
Width : 720 pixels
Height : 406 pixels
Display aspect ratio : 16/9
Frame rate : 25.000 fps
Resolution : 24 bits
Colorimetry : 4:2:0
Scan type : Progressive
Bits/(Pixel*Frame) : 0.066
Stream size : 223 MiB (78%)
Writing library : XviD 50

Audio
Format : MPEG Audio
Format version : Version 1
Format profile : Layer 3
Codec ID : 55
Codec ID/Hint : MP3
Duration : 1h 4mn
Bit rate mode : Constant
Bit rate : 128 Kbps
Channel(s) : 2 channels
Sampling rate : 44.1 KHz
Resolution : 16 bits
Stream size : 58.9 MiB (21%)
Alignment : Split accross interleaves
Interleave, duration : 40 ms (1.00 video frame)
Interleave, preload duration : 500 ms

2 penghinaan diterima:

Anonymous said...

salam HA, ep 01 ade x?

ni nasrullah abdulkadir, malas nk sign in

joegrimjow on June 6, 2009 at 1:59 PM said...

cam kenal jee

 

License

This blog by Muhammad Hafiz Adam is official website of Creative Designer and licensed under a Creative Commons Attribution-Noncommercial 2.5 Malaysia License.

You're free to Share (copying, distributing and transmitting) and to Remix (adapting the work) under the following conditions:
a) Attribution;
You must attribute the work by linking back to this blog pr anything similar (but not in any way that suggests that I endorse you or your use of the work).
b) Noncommercial;
You may not use this work for commercial purposes.

Categories

~AkuDarahAnakMalaysia~ Copyright © 2009 Community is Designed by Bie Blogger Template